torrents rarbg
Catalog Top 10

RARBG
Home
Movies
XXX
TV Shows
Games
Music
Anime
Apps
Doc
Other
Non XXX

Confess Fletch (2022) 2160p HDR 5.1 x265 10bit Phun Psyz

Torrent:


Confess Fletch (2022) 2160p HDR 5.1 x265 10bit Phun Psyz
VPN:
Downloading torrents is getting riskier every day. Use a VPN to make yourself hidden while downloading torrents.
By using a VPN , your ISP and Government Agencies will not be able to spy on you, neither would they be able to track your online activity!
Description:

www.imdb.com/title/tt12718300/

After becoming the prime suspect in multiple murders, Fletch strives to prove his innocence while simultaneously searching for his fiancé's stolen art collection.

Source: 4K HDR web



Format : Matroska
Format version : Version 4
File size : 2.23 GiB
Duration : 1 h 38 min
Overall bit rate : 3 239 kb/s

Video
ID : 1
Format : HEVC
Format/Info : High Efficiency Video Coding
Format profile : Main [email protected]@High
HDR format : SMPTE ST 2086, HDR10 compatible
Codec ID : V_MPEGH/ISO/HEVC
Duration : 1 h 38 min
Bit rate : 2 855 kb/s
Width : 3 840 pixels
Height : 2 076 pixels
Display aspect ratio : 1.85:1
Frame rate mode : Constant
Frame rate : 23.976 (24000/1001) FPS
Color space : YUV
Chroma subsampling : 4:2:0
Bit depth : 10 bits
Bits/(Pixel*Frame) : 0.015
Stream size : 1.96 GiB (88%)
Color primaries : BT.2020
Transfer characteristics : PQ
Matrix coefficients : BT.2020 non-constant

Audio
ID : 2
Format : E-AC-3
Format/Info : Enhanced AC-3
Commercial name : Dolby Digital Plus
Codec ID : A_EAC3
Duration : 1 h 38 min
Bit rate mode : Constant
Bit rate : 320 kb/s
Channel(s) : 6 channels
Channel layout : L R C LFE Ls Rs
Sampling rate : 48.0 kHz
Frame rate : 31.250 FPS (1536 SPF)
Compression mode : Lossy
Stream size : 226 MiB (10%)
Title : Surround
Language : English

Text
Language : English
Language : English
Default : No
Forced : No

Downloads: 92
Category: Movies/UHD
Size: 2.2 GB
Show Files »
files
Added: 2022-09-22 10:07:59
Language: English
Peers: Seeders : 22 , Leechers : 12
Tags: Confess Fletch 2022 2160p HDR x265 Phun Psyz 
Release name: Confess Fletch (2022) 2160p HDR 5.1 x265 10bit Phun Psyz
Trackers:

udp://ipv4.tracker.harry.lu:80/announce

udp://tracker.moeking.me:6969/announce

udp://tracker.opentrackr.org:1337/announce

udp://tracker.openbittorrent.com:6969

udp://explodie.org:6969/announce

udp://open.stealth.si:80/announce

http://ipv4announce.sktorrent.eu:6969/announce

udp://vibe.sleepyinternetfun.xyz:1738/announce

udp://tracker.torrent.eu.org:451/announce

http://tracker.bt4g.com:2095/announce

Download: Confess Fletch (2022) 2160p HDR 5.1 x265 10bit Phun Psyz




By using this site you agree to and accept our user agreement. If you havent read the user agreement please do so here