torrents rarbg
Catalog Top 10

RARBG
Home
Movies
XXX
TV Shows
Games
Music
Anime
Apps
Doc
Other
Non XXX

The Alfred Hitchcock Hour (1962) Season 1-3 S01-03 (1080p PCOK WEBRIP x265 HEVC 10bit AAC 2.0 EDGE2020)

Torrent:


The Alfred Hitchcock Hour (1962) Season 1-3 S01-03 (1080p PCOK WEBRIP x265 HEVC 10bit AAC 2.0 EDGE2020)
VPN:
Downloading torrents is getting riskier every day. Use a VPN to make yourself hidden while downloading torrents.
By using a VPN , your ISP and Government Agencies will not be able to spy on you, neither would they be able to track your online activity!
Description:

The Alfred Hitchcock Hour (1962) - Season 1-3 - 1080p x265 10bit AAC 2.0

Encoded by EDGE2020
TorrentGalaxy - 1337x
Have a request? Send me a PM on TorrentGalaxy.

Show Info
A continuation of the dramatic anthology series Alfred Hitchcock Presents (1955) hosted by the Master of Suspense and Mystery.

IMDb (8.5/10)



Source Information


Quote:


Peacock WEB-DL



Media Information
English Subtitles included.



Quote:



General
Complete name : The Alfred Hitchcock Hour (1962)\Season 1\The Alfred Hitchcock Hour - S01E01 - A Piece of the Action (1080p x265 EDGE2020).mkv
Format : Matroska
Format version : Version 4
File size : 1.10 GiB
Duration : 48 min 43 s
Overall bit rate : 3 244 kb/s
Writing application : mkvmerge v69.0.0 ('Day And Age') 64-bit
Writing library : libebml v1.4.2 + libmatroska v1.6.4

Video
ID : 1
Format : HEVC
Format/Info : High Efficiency Video Coding
Format profile : Main [email protected]@Main
Codec ID : V_MPEGH/ISO/HEVC
Duration : 48 min 43 s
Bit rate : 3 146 kb/s
Width : 1 440 pixels
Height : 1 080 pixels
Display aspect ratio : 4:3
Frame rate mode : Constant
Frame rate : 25.000 FPS
Color space : YUV
Chroma subsampling : 4:2:0 (Type 0)
Bit depth : 10 bits
Bits/(Pixel*Frame) : 0.081
Stream size : 1.07 GiB (97%)
Writing library : x265 3.5+1-f0c1022b6:[Windows][GCC 10.2.0][64 bit] 10bit
Encoding settings : cpuid=1111039 / frame-threads=4 / numa-pools=16 / wpp / no-pmode / no-pme / no-psnr / no-ssim / log-level=2 / input-csp=1 / input-res=1440x1080 / interlace=0 / total-frames=0 / level-idc=0 / high-tier=1 / uhd-bd=0 / ref=4 / no-allow-non-conformance / no-repeat-headers / annexb / no-aud / no-hrd / info / hash=0 / no-temporal-layers / open-gop / min-keyint=25 / keyint=250 / gop-lookahead=0 / bframes=4 / b-adapt=2 / b-pyramid / bframe-bias=0 / rc-lookahead=25 / lookahead-slices=4 / scenecut=40 / hist-scenecut=0 / radl=0 / no-splice / no-intra-refresh / ctu=64 / min-cu-size=8 / no-rect / no-amp / max-tu-size=32 / tu-inter-depth=1 / tu-intra-depth=1 / limit-tu=0 / rdoq-level=2 / dynamic-rd=0.00 / no-ssim-rd / signhide / no-tskip / nr-intra=0 / nr-inter=0 / no-constrained-intra / no-strong-intra-smoothing / max-merge=3 / limit-refs=3 / limit-modes / me=3 / subme=3 / merange=57 / temporal-mvp / no-frame-dup / no-hme / weightp / no-weightb / no-analyze-src-pics / deblock=0:0 / sao / no-sao-non-deblock / rd=4 / selective-sao=4 / no-early-skip / rskip / no-fast-intra / no-tskip-fast / no-cu-lossless / no-b-intra / no-splitrd-skip / rdpenalty=0 / psy-rd=2.00 / psy-rdoq=1.00 / no-rd-refine / no-lossless / cbqpoffs=0 / crqpoffs=0 / rc=crf / crf=22.0 / qcomp=0.60 / qpstep=4 / stats-write=0 / stats-read=0 / ipratio=1.40 / pbratio=1.30 / aq-mode=1 / aq-strength=1.00 / cutree / zone-count=0 / no-strict-cbr / qg-size=32 / no-rc-grain / qpmax=69 / qpmin=0 / no-const-vbv / sar=1 / overscan=0 / videoformat=5 / range=0 / colorprim=1 / transfer=1 / colormatrix=1 / chromaloc=1 / chromaloc-top=0 / chromaloc-bottom=0 / display-window=0 / cll=0,0 / min-luma=0 / max-luma=1023 / log2-max-poc-lsb=8 / vui-timing-info / vui-hrd-info / slices=1 / no-opt-qp-pps / no-opt-ref-list-length-pps / no-multi-pass-opt-rps / scenecut-bias=0.05 / hist-threshold=0.03 / no-opt-cu-delta-qp / no-aq-motion / no-hdr10 / no-hdr10-opt / no-dhdr10-opt / no-idr-recovery-sei / analysis-reuse-level=0 / analysis-save-reuse-level=0 / analysis-load-reuse-level=0 / scale-factor=0 / refine-intra=0 / refine-inter=0 / refine-mv=1 / refine-ctu-distortion=0 / no-limit-sao / ctu-info=0 / no-lowpass-dct / refine-analysis-type=0 / copy-pic=1 / max-ausize-factor=1.0 / no-dynamic-refine / no-single-sei / no-hevc-aq / no-svt / no-field / qp-adaptation-range=1.00 / scenecut-aware-qp=0conformance-window-offsets / right=0 / bottom=0 / decoder-max-rate=0 / no-vbv-live-multi-pass
Default : Yes
Forced : No
Color range : Limited
Color primaries : BT.709
Transfer characteristics : BT.709
Matrix coefficients : BT.709

Audio
ID : 2
Format : AAC LC
Format/Info : Advanced Audio Codec Low Complexity
Codec ID : A_AAC-2
Duration : 48 min 43 s
Bit rate : 96.0 kb/s
Channel(s) : 2 channels
Channel layout : L R
Sampling rate : 48.0 kHz
Frame rate : 46.875 FPS (1024 SPF)
Compression mode : Lossy
Stream size : 33.4 MiB (3%)
Language : English
Default : Yes
Forced : No

Text
ID : 3
Format : ASS
Codec ID : S_TEXT/ASS
Codec ID/Info : Advanced Sub Station Alpha
Duration : 48 min 36 s
Bit rate : 119 b/s
Frame rate : 0.299 FPS
Count of elements : 873
Compression mode : Lossless
Stream size : 42.6 KiB (0%)
Language : English
Default : No
Forced : No


Downloads: 65
Category: TV/HEVC/x265
Size: 111.2 GB
Show Files »
files
Added: 2022-08-09 10:02:06
Language: English
Peers: Seeders : 18 , Leechers : 29
Release name: The Alfred Hitchcock Hour (1962) Season 1-3 S01-03 (1080p PCOK WEBRIP x265 HEVC 10bit AAC 2.0 EDGE2020)
Trackers:

udp://tracker.torrent.eu.org:451

udp://open.stealth.si:80/announce

udp://tracker.openbittorrent.com:6969

udp://tracker.opentrackr.org:1337/announce

udp://open.demonii.com:1337

Download: The Alfred Hitchcock Hour (1962) Season 1-3 S01-03 (1080p PCOK WEBRIP x265 HEVC 10bit AAC 2.0 EDGE2020)




By using this site you agree to and accept our user agreement. If you havent read the user agreement please do so here